Login
Username:
Password:
[Signup]
[Recover Account]


Browse Torrents

Poll


You must be logged in to view polls



Latest Torrents
Stree (2018) 720p ...
- [Size: 1.50 GB]

Mirzapur S01 Compl...
- [Size: 5.07 GB]

Koffee With Karan ...
- [Size: 729.09 MB]

Udanchhoo (2018) H...
- [Size: 3.00 GB]

Stree (2018) Hindi...
- [Size: 1.28 GB]


Torrent Details For "Shonar Pahar (2018) Bengali 720p HDRip x264 AAC 1.2GB - MovCr"

Shonar Pahar (2018) Bengali 720p HDRip x264 AAC 1.2GB - MovCr

Download this torrent | Magnet Download
Health:
Seeds: 13
Leechers: 0
Completed:
Last Checked: 09-11-2018 19:13:26
External Torrent
Update Stats



Images Host

Poster


iMDB
Title: Shonar Pahar
Year: 2018
Language: Bengali
All Genres: Drama
Director: Parambrata Chatterjee
Writing By: Parambrata Chatterjee,
Produced By: Aritra Sen,
Music: Neel Dutt
Cast:
Parambrata Chatterjee as
Soumitra Chatterjee as
Arunima Ghosh as
Jishu Sengupta as
Tanuja as


Watch-Free-HD     Download

Details
Name:Shonar Pahar (2018) Bengali 720p HDRip x264 AAC 1.2GB - MovCr
Description:
 www.movcr.cc


Shonar Pahar (2018) Bengali 720p HDRip x264 AAC 1.2GB - MovCr



 http://www.imdb.com/title/tt8347882/

 


General
Unique ID                                : 304076133633475845725413003937766944184 (0xE4C2EEE08C1ED9D5FF0A21FC30C3ADB8)
Complete name                            : www.MovCr.cc - Shonar Pahar (2018) Bengali 720p HDRip x264 AAC 1.2GB - MovCr.mkv
Format                                   : Matroska
Format version                           : Version 4 / Version 2
File size                                : 1.18 GiB
Duration                                 : 2 h 11 min
Overall bit rate                         : 1 281 kb/s
Movie name                               : www.MovCr.cc
Encoded date                             : UTC 2018-11-09 19:02:56
Writing application                      : mkvmerge v26.0.0 ('In The Game') 64-bit
Writing library                          : libebml v1.3.6 + libmatroska v1.4.9

Video
ID                                       : 1
Format                                   : AVC
Format/Info                              : Advanced Video Codec
Format profile                           : [email protected]
Format settings                          : 2 Ref Frames
Format settings, CABAC                   : No
Format settings, RefFrames               : 2 frames
Format settings, GOP                     : M=1, N=25
Codec ID                                 : V_MPEG4/ISO/AVC
Duration                                 : 2 h 11 min
Bit rate                                 : 1 182 kb/s
Width                                    : 1 280 pixels
Height                                   : 544 pixels
Display aspect ratio                     : 2.35:1
Frame rate mode                          : Constant
Frame rate                               : 25.000 FPS
Color space                              : YUV
Chroma subsampling                       : 4:2:0
Bit depth                                : 8 bits
Scan type                                : Progressive
Bits/(Pixel*Frame)                       : 0.068
Stream size                              : 1.08 GiB (92%)
Title                                    : www.MovCr.cc
Default                                  : Yes
Forced                                   : No

Audio
ID                                       : 2
Format                                   : AAC
Format/Info                              : Advanced Audio Codec
Format profile                           : LC
Codec ID                                 : A_AAC-2
Duration                                 : 2 h 11 min
Bit rate                                 : 96.0 kb/s
Channel(s)                               : 2 channels
Channel positions                        : Front: L R
Sampling rate                            : 48.0 kHz
Frame rate                               : 46.875 FPS (1024 SPF)
Compression mode                         : Lossy
Stream size                              : 90.7 MiB (8%)
Title                                    : www.MovCr.cc
Language                                 : Bengali
Default                                  : Yes
Forced                                   : No



 
 
 
 
 
 
 
Category:Movies > Bengali
Lang:Bengali  Bengali
Total Size:1.18 GB
Info Hash:c4ad1921e4e43aff3d4e619005cf0e0cdc1c6fd3
Added By:Kingmaker
Date Added:09-11-2018 19:10:55
Downloads:168

Ratings:Not Yet Rated (Log in to rate it)


Tracker:
udp://tracker.coppersurfer.tk:6969/announce


File List: 


Comments

<< Previous      Next >>
1 - 1

[Report] Posted: 10-11-2018 at 00:19:42
atittude911



8)

1 - 1
<< Previous      Next >>


Top
Copyright 2018 DownloadHD -|- Page Generated In 3.161088 secs.
-|- RSS Feed -|- Feed Info