Login
Username:
Password:
[Signup]
[Recover Account]


Browse Torrents

Poll


You must be logged in to view polls



Latest Torrents
Hawaii.Five-0.2010...
- [Size: 936.74 MB]

Between Worlds (20...
- [Size: 530.05 MB]

Westwood Punk Icon...
- [Size: 1.56 GB]

Midnight.Texas.S02...
- [Size: 276.60 MB]

Midnight.Texas.S02...
- [Size: 833.95 MB]


Torrent Details For "Mitron (2018) Hindi 720p WEB-Rip x264 AC3 DD5.1 - ESUB ~ Ranvijay"

Mitron (2018) Hindi 720p WEB-Rip x264 AC3 DD5.1 - ESUB ~ Ranvijay

Download this torrent | Magnet Download
Health:
Seeds: 115
Leechers: 154
Completed: 811 
Last Checked: 10-11-2018 15:55:30
External Torrent
Update Stats



Images Host

Poster


iMDB
Title: Mitron
Year: 2018
Runtime: 119 minutes
Votes: 219
Rating: 7.3/10
Language: Hindi
Director: Nitin Kakkar
Writing By: Tharun Bhascker Dhaassyam,Sharib Hashmi,
Produced By: Chandresh Bhatt,Deesha Dhanuka,Vikram Malhotra,
Music: Sameer Uddin
Cast:
Jackky Bhagnani as Jai
Pratik Gandhi as Raunak
Kritika Kamra as Avni
Shivam Parekh as Deepu
Neha Reddy ">Neha Reddy as Bijal
Neeraj Sood as Father
Trailers:
Mitron trailer


Watch-Free-HD     Download

Details
Name:Mitron (2018) Hindi 720p WEB-Rip x264 AC3 DD5.1 - ESUB ~ Ranvijay
Description:




 

Mitron (2018) Hindi 720p WEB-Rip x264 AC3 DD5.1 - ESUB ~ Ranvijay

Buy RDP Online

 


Source                                   :NG
Format                                   : Matroska
Format version                           : Version 4 / Version 2
File size                                : 1.40 GiB
Duration                                 : 1 h 56 min
Overall bit rate                         : 1 726 kb/s
Movie name                               : Mitron (2018) Hindi 720p WEB-Rip x264 AC3 DD5.1 - ESUB ~ Ranvijay

Video
ID                                       : 1
Format                                   : AVC
Format/Info                              : Advanced Video Codec
Duration                                 : 1 h 56 min
Bit rate                                 : 1 500 kb/s
Width                                    : 1 280 pixels
Height                                   : 544 pixels
Display aspect ratio                     : 2.35:1
Frame rate mode                          : Constant
Frame rate                               : 24.000 FPS
Color space                              : YUV
Chroma subsampling                       : 4:2:0
Bit depth                                : 8 bits
Scan type                                : Progressive
Bits/(Pixel*Frame)                       : 0.090
Stream size                              : 1.22 GiB (87%)
Title                                    : ~Ranvijay~

Audio
ID                                       : 2
Format                                   : AC-3
Format/Info                              : Audio Coding 3
Codec ID                                 : A_AC3
Duration                                 : 1 h 56 min
Bit rate mode                            : Constant
Bit rate                                 : 224 kb/s
Channel(s)                               : 6 channels
Channel positions                        : Front: L C R, Side: L R, LFE
Sampling rate                            : 48.0 kHz
Frame rate                               : 31.250 FPS (1536 SPF)
Bit depth                                : 16 bits
Compression mode                         : Lossy
Stream size                              : 186 MiB (13%)
Title                                    : ~Ranvijay~
Service kind                             : Complete Main
Default                                  : Yes
Forced                                   : No

Text
ID                                       : 3
Format                                   : UTF-8
Codec ID                                 : S_TEXT/UTF8
Codec ID/Info                            : UTF-8 Plain Text
Duration                                 : 1 h 55 min
Bit rate                                 : 72 b/s
Count of elements                        : 2102
Stream size                              : 61.3 KiB (0%)
Title                                    : ~Ranvijay~
Language                                 : English
Default                                  : No
Forced                                   : No


 
 
 
 
 
 
 
 
 


Don't walk as you are king, walk as you don't care who the king is....!!

 

Category:Movies > Bollywood
Lang:Hindi
Total Size:1.42 GB
Info Hash:3caad211191536f3bb15fa75181f114c7767bd0d
Added By:ranvijay1234
Date Added:09-11-2018 18:29:49
Downloads:341

Ratings:Not Yet Rated (Log in to rate it)


Tracker:
udp://tracker.leechers-paradise.org:6969/announce

This Torrent also has backup trackers
URLSeedersLeechersCompleted
http://glotorrents.pw:80/announce000
http://tracker.aletorrenty.pl:2710/announce000
http://tracker1.itzmx.com:8080/announce000
http://tracker4.itzmx.com:2710/announce000
http://open.acgnxtracker.com:80/announce000


File List: 


Comments

No comments still posted

Top
Copyright 2018 DownloadHD -|- Page Generated In 2.209896 secs.
-|- RSS Feed -|- Feed Info