Login
Username:
Password:
[Signup]
[Recover Account]


Browse Torrents

Poll


You must be logged in to view polls



Latest Torrents
Crazy.Ex-Girlfrien...
- [Size: 387.53 MB]

Crazy.Ex-Girlfrien...
- [Size: 755.48 MB]

Dynasty.2017.S02E0...
- [Size: 390.06 MB]

Dynasty.2017.S02E0...
- [Size: 760.59 MB]

Hawaii.Five-0.2010...
- [Size: 667.69 MB]


Torrent Details For "Death.Kiss.2018.1080p.WEB-DL.DD+2.0.H.264.LG"

Death.Kiss.2018.1080p.WEB-DL.DD+2.0.H.264.LG

Download this torrent | Magnet Download
Health:
Seeds: 79
Leechers: 95
Completed: 93 
Last Checked: 29-10-2018 21:17:07
External Torrent
Update Stats



Images Host

Poster
No poster


iMDB
Title: Death Kiss
Year: 2018
Runtime: 87 minutes
Votes: 202
Rating: 4.5/10
Language: English
Tagline: Justice has a familiar face.
Director: Rene Perez
Writing By: Rene Perez,
Produced By: Reese Austyn,Zach Carter,Gary Jones,Jeff Miller,Sabrina Morgan,Richard Tyson,
Music: Rene Perez
Cast:
Robert Bronzi as The Stranger
Daniel Baldwin as Dan Forthright
Richard Tyson as Tyrell
Eva Hamilton as Ana
Stormi Maya as Tanya
J.D. Angstadt as Bodyguard
Reese Austyn as Torch
Zach Carter as Homeless Man
Anton Clark as Bone
Malorie Glavan as Malorie
Trailers:
Death Kiss


Watch-Free-HD     Download

Details
Name:Death.Kiss.2018.1080p.WEB-DL.DD+2.0.H.264.LG
Description:


******************************Thumbnail:**********************

 

******************************Screenshots:********************

 Screenshot 1

 Screenshot 2

 Screenshot 3

 Screenshot 4

 Screenshot 5

 Screenshot 6

 Screenshot 7

 Screenshot 8

 Screenshot 9

******************************Poster:***********************

 

************************************************************

Death.Kiss.2018.1080p.WEB-DL.DD+2.0.H.264.LLG.mp4
Format                                   : MPEG-4
Format profile                           : Base Media
Codec ID                                 : isom (isom/iso2/avc1/mp41)
File size                                : 2.58 GiB
Duration                                 : 1 h 28 min
Overall bit rate mode                    : Variable
Overall bit rate                         : 4 190 kb/s

Video
ID                                       : 1
Format                                   : AVC
Format/Info                              : Advanced Video Codec
Format profile                           : [email protected]
Format settings                          : CABAC / 1 Ref Frames
Format settings, CABAC                   : Yes
Format settings, RefFrames               : 1 frame
Codec ID                                 : avc1
Codec ID/Info                            : Advanced Video Coding
Duration                                 : 1 h 28 min
Bit rate mode                            : Variable
Bit rate                                 : 3 996 kb/s
Maximum bit rate                         : 12.0 Mb/s
Width                                    : 1 920 pixels
Height                                   : 1 080 pixels
Display aspect ratio                     : 16:9
Frame rate mode                          : Constant
Frame rate                               : 23.976 (23976/1000) FPS
Color space                              : YUV
Chroma subsampling                       : 4:2:0
Bit depth                                : 8 bits
Scan type                                : Progressive
Bits/(Pixel*Frame)                       : 0.080
Stream size                              : 2.46 GiB (95%)


Audio
ID                                       : 2
Format                                   : AC-3
Format/Info                              : Audio Coding 3
Commercial name                          : Dolby Digital
Codec ID                                 : ac-3
Duration                                 : 1 h 28 min
Bit rate mode                            : Constant
Bit rate                                 : 192 kb/s
Channel(s)                               : 2 channels
Channel layout                           : L R
Sampling rate                            : 48.0 kHz
Frame rate                               : 31.250 FPS (1536 SPF)
Bit depth                                : 16 bits
Compression mode                         : Lossy
Stream size                              : 121 MiB (5%)
Language                                 : English
Service kind                             : Complete Main
Default                                  : Yes





**************************************************************

Category:Movies > WEB-HD
Lang:English  English
Total Size:2.61 GB
Info Hash:658cc64c215926c17edee815cce2b17b0393bef6
Added By:LifeLongg
Date Added:29-10-2018 17:57:10
Downloads:83

Ratings:Not Yet Rated (Log in to rate it)


Tracker:
udp://tracker.openbittorrent.com:80/announce


File List: 


Comments

No comments still posted

Top
Copyright 2018 DownloadHD -|- Page Generated In 1.080592 secs.
-|- RSS Feed -|- Feed Info